osu file format v14

[General]
AudioFilename: L.E.D. - KAIROS IN THE SPACE TIME.mp3
AudioLeadIn: 1500
PreviewTime: 29820
Countdown: 0
SampleSet: Soft
StackLeniency: 0.7
Mode: 3
LetterboxInBreaks: 0
WidescreenStoryboard: 0

[Editor]
DistanceSpacing: 0.8
BeatDivisor: 4
GridSize: 16
TimelineZoom: 1.6

[Metadata]
Title:KAIROS IN THE SPACE TIME
TitleUnicode:KAIROS IN THE SPACE TIME
Artist:L.E.D.
ArtistUnicode:L.E.D.
Creator:Spy
Version:Shana's Hyper
Source:beatmania IIDX
Tags:22 PENDUAL TALISMAN ORIGINAL SOUNDTRACK VOL.2 BEMANI KONAMI FUTURE SYSTEM BGM TECHINO Back to chronos [Shana_Lesus] MeowPaz
BeatmapID:793652
BeatmapSetID:361050

[Difficulty]
HPDrainRate:7
CircleSize:4
OverallDifficulty:8
ApproachRate:5
SliderMultiplier:1.4
SliderTickRate:1

[Events]
//Background and Video events
0,0,"BG.jpg",0,0
//Break Periods
//Storyboard Layer 0 (Background)
//Storyboard Layer 1 (Fail)
//Storyboard Layer 2 (Pass)
//Storyboard Layer 3 (Foreground)
//Storyboard Sound Samples

[TimingPoints]
1020,400,4,2,1,50,1,0
4220,-100,4,2,1,50,0,1
16820,-100,4,2,1,50,0,0
17020,-100,4,2,1,50,0,1
29620,-100,4,2,1,50,0,0
29820,-100,4,2,1,50,0,1
41020,-100,4,2,1,50,0,0
49020,-100,4,2,1,50,0,1
55420,-100,4,2,1,50,0,0

[HitObjects]
64,192,1020,128,0,2620:0:0:0:0:
192,192,2720,1,0,0:0:0:0:
320,192,2820,1,0,0:0:0:0:
448,192,2920,1,0,0:0:0:0:
64,192,3120,1,0,0:0:0:0:
192,192,3220,1,0,0:0:0:0:
320,192,3320,1,0,0:0:0:0:
448,192,3420,1,0,0:0:0:0:
320,192,3486,1,0,0:0:0:0:
192,192,3553,1,0,0:0:0:0:
64,192,3620,1,0,0:0:0:0:
320,192,3720,1,0,0:0:0:0:
192,192,3820,1,0,0:0:0:0:
448,192,3920,1,0,0:0:0:0:
320,192,4020,1,0,0:0:0:0:
64,192,4120,1,0,0:0:0:0:
192,192,4220,1,2,0:0:0:0:
448,192,4220,1,8,0:0:0:0:
320,192,4420,1,0,0:0:0:0:
192,192,4520,1,0,0:0:0:0:
64,192,4620,1,0,0:0:0:0:
448,192,4620,1,8,0:0:0:0:
192,192,4820,1,0,0:0:0:0:
320,192,4920,1,0,0:0:0:0:
64,192,5020,1,0,0:0:0:0:
448,192,5020,1,8,0:0:0:0:
192,192,5220,1,0,0:0:0:0:
64,192,5320,1,0,0:0:0:0:
192,192,5420,1,0,0:0:0:0:
320,192,5420,1,8,0:0:0:0:
448,192,5520,1,0,0:0:0:0:
64,192,5620,1,0,0:0:0:0:
320,192,5720,1,0,0:0:0:0:
192,192,5820,1,2,0:0:0:0:
448,192,5820,1,8,0:0:0:0:
320,192,6020,1,0,0:0:0:0:
192,192,6120,1,0,0:0:0:0:
320,192,6220,1,8,0:0:0:0:
64,192,6220,1,0,0:0:0:0:
448,192,6320,1,0,0:0:0:0:
192,192,6420,1,0,0:0:0:0:
320,192,6520,1,0,0:0:0:0:
64,192,6620,1,0,0:0:0:0:
448,192,6620,1,8,0:0:0:0:
320,192,6720,1,0,0:0:0:0:
192,192,6820,1,0,0:0:0:0:
448,192,6920,1,0,0:0:0:0:
320,192,7020,1,8,0:0:0:0:
64,192,7020,1,0,0:0:0:0:
448,192,7120,1,0,0:0:0:0:
192,192,7220,1,0,0:0:0:0:
64,192,7320,1,0,0:0:0:0:
448,192,7420,1,8,0:0:0:0:
320,192,7420,1,0,0:0:0:0:
192,192,7520,1,0,0:0:0:0:
64,192,7620,1,0,0:0:0:0:
320,192,7720,1,0,0:0:0:0:
192,192,7820,1,0,0:0:0:0:
448,192,7820,1,8,0:0:0:0:
64,192,7920,1,0,0:0:0:0:
320,192,8020,1,0,0:0:0:0:
448,192,8120,1,0,0:0:0:0:
192,192,8220,1,0,0:0:0:0:
320,192,8220,1,8,0:0:0:0:
64,192,8320,1,0,0:0:0:0:
448,192,8420,1,0,0:0:0:0:
192,192,8520,1,0,0:0:0:0:
64,192,8620,1,0,0:0:0:0:
320,192,8620,1,8,0:0:0:0:
448,192,8720,1,0,0:0:0:0:
192,192,8820,1,0,0:0:0:0:
64,192,8920,1,0,0:0:0:0:
448,192,9020,1,8,0:0:0:0:
320,192,9020,1,0,0:0:0:0:
192,192,9220,1,0,0:0:0:0:
448,192,9320,1,0,0:0:0:0:
320,192,9420,1,8,0:0:0:0:
64,192,9420,1,0,0:0:0:0:
448,192,9520,1,0,0:0:0:0:
192,192,9620,1,0,0:0:0:0:
64,192,9720,1,0,0:0:0:0:
192,192,9820,1,0,0:0:0:0:
320,192,9820,1,8,0:0:0:0:
448,192,9920,1,0,0:0:0:0:
64,192,10020,1,0,0:0:0:0:
192,192,10120,1,0,0:0:0:0:
320,192,10220,1,0,0:0:0:0:
448,192,10220,1,8,0:0:0:0:
192,192,10320,1,0,0:0:0:0:
448,192,10420,1,0,0:0:0:0:
64,192,10520,1,0,0:0:0:0:
320,192,10620,1,8,0:0:0:0:
192,192,10620,1,2,0:0:0:0:
448,192,10720,1,0,0:0:0:0:
64,192,10820,1,0,0:0:0:0:
192,192,10920,1,0,0:0:0:0:
320,192,11020,1,0,0:0:0:0:
448,192,11020,1,8,0:0:0:0:
64,192,11120,1,0,0:0:0:0:
320,192,11220,1,0,0:0:0:0:
192,192,11320,1,0,0:0:0:0:
64,192,11420,1,0,0:0:0:0:
448,192,11420,1,8,0:0:0:0:
192,192,11620,1,0,0:0:0:0:
320,192,11720,1,0,0:0:0:0:
192,192,11820,1,0,0:0:0:0:
448,192,11820,1,8,0:0:0:0:
64,192,11920,1,0,0:0:0:0:
320,192,12020,1,0,0:0:0:0:
448,192,12120,1,0,0:0:0:0:
192,192,12220,1,8,0:0:0:0:
64,192,12220,1,2,0:0:0:0:
320,192,12420,1,0,0:0:0:0:
192,192,12520,1,0,0:0:0:0:
64,192,12620,1,0,0:0:0:0:
448,192,12620,1,8,0:0:0:0:
192,192,12720,1,0,0:0:0:0:
320,192,12820,1,0,0:0:0:0:
448,192,12920,1,0,0:0:0:0:
192,192,13020,1,8,0:0:0:0:
64,192,13020,1,0,0:0:0:0:
320,192,13120,1,0,0:0:0:0:
448,192,13220,1,0,0:0:0:0:
192,192,13320,1,0,0:0:0:0:
448,192,13420,1,8,0:0:0:0:
64,192,13420,1,0,0:0:0:0:
320,192,13520,1,0,0:0:0:0:
192,192,13620,1,0,0:0:0:0:
448,192,13720,1,0,0:0:0:0:
64,192,13820,1,0,0:0:0:0:
320,192,13820,1,8,0:0:0:0:
192,192,13920,1,0,0:0:0:0:
448,192,14020,1,0,0:0:0:0:
320,192,14120,1,0,0:0:0:0:
64,192,14220,1,0,0:0:0:0:
192,192,14220,1,8,0:0:0:0:
448,192,14320,1,0,0:0:0:0:
192,192,14420,1,0,0:0:0:0:
320,192,14520,1,0,0:0:0:0:
448,192,14620,1,8,0:0:0:0:
64,192,14620,1,0,0:0:0:0:
192,192,14720,1,0,0:0:0:0:
320,192,14820,1,0,0:0:0:0:
192,192,14920,1,0,0:0:0:0:
320,192,15020,1,0,0:0:0:0:
448,192,15020,1,8,0:0:0:0:
64,192,15120,1,0,0:0:0:0:
192,192,15220,1,0,0:0:0:0:
448,192,15320,1,0,0:0:0:0:
320,192,15420,1,8,0:0:0:0:
64,192,15420,1,0,0:0:0:0:
192,192,15620,1,0,0:0:0:0:
320,192,15720,1,0,0:0:0:0:
448,192,15820,1,8,0:0:0:0:
64,192,15820,1,0,0:0:0:0:
192,192,15920,1,0,0:0:0:0:
448,192,16020,1,0,0:0:0:0:
320,192,16086,1,0,0:0:0:0:
192,192,16153,1,0,0:0:0:0:
64,192,16220,1,8,0:0:0:0:
448,192,16286,1,0,0:0:0:0:
320,192,16353,1,0,0:0:0:0:
192,192,16420,1,0,0:0:0:0:
64,192,16520,1,0,0:0:0:0:
448,192,16620,1,8,0:0:0:0:
320,192,16620,1,0,0:0:0:0:
192,192,16720,1,0,0:0:0:0:
320,192,16820,1,0,0:0:0:0:
448,192,16920,1,0,0:0:0:0:
320,192,17020,1,8,0:0:0:0:
64,192,17020,1,2,0:0:0:0:
192,192,17220,1,0,0:0:0:0:
64,192,17320,1,0,0:0:0:0:
320,192,17420,1,0,0:0:0:0:
448,192,17420,1,8,0:0:0:0:
64,192,17520,1,0,0:0:0:0:
192,192,17620,1,0,0:0:0:0:
320,192,17720,1,0,0:0:0:0:
192,192,17820,1,0,0:0:0:0:
448,192,17820,1,8,0:0:0:0:
320,192,17920,1,0,0:0:0:0:
64,192,18020,1,0,0:0:0:0:
448,192,18120,1,0,0:0:0:0:
192,192,18220,1,0,0:0:0:0:
320,192,18220,1,8,0:0:0:0:
448,192,18320,1,0,0:0:0:0:
64,192,18420,1,0,0:0:0:0:
192,192,18520,1,0,0:0:0:0:
320,192,18620,1,8,0:0:0:0:
64,192,18620,1,2,0:0:0:0:
448,192,18820,1,0,0:0:0:0:
192,192,18920,1,0,0:0:0:0:
320,192,19020,1,8,0:0:0:0:
64,192,19020,1,0,0:0:0:0:
448,192,19120,1,0,0:0:0:0:
320,192,19220,1,0,0:0:0:0:
192,192,19320,1,0,0:0:0:0:
64,192,19420,1,0,0:0:0:0:
448,192,19420,1,8,0:0:0:0:
320,192,19520,1,0,0:0:0:0:
192,192,19620,1,0,0:0:0:0:
320,192,19720,1,0,0:0:0:0:
448,192,19820,1,8,0:0:0:0:
64,192,19820,1,0,0:0:0:0:
192,192,19920,1,0,0:0:0:0:
64,192,20020,1,0,0:0:0:0:
320,192,20120,1,0,0:0:0:0:
192,192,20220,1,0,0:0:0:0:
448,192,20220,1,8,0:0:0:0:
320,192,20320,1,0,0:0:0:0:
64,192,20420,1,0,0:0:0:0:
448,192,20520,1,0,0:0:0:0:
320,192,20620,1,8,0:0:0:0:
192,192,20620,1,0,0:0:0:0:
448,192,20720,1,0,0:0:0:0:
64,192,20820,1,0,0:0:0:0:
192,192,20920,1,0,0:0:0:0:
320,192,21020,1,8,0:0:0:0:
64,192,21020,1,0,0:0:0:0:
192,192,21120,1,0,0:0:0:0:
448,192,21220,1,0,0:0:0:0:
320,192,21320,1,0,0:0:0:0:
192,192,21420,1,8,0:0:0:0:
64,192,21420,1,0,0:0:0:0:
320,192,21520,1,0,0:0:0:0:
448,192,21620,1,0,0:0:0:0:
192,192,21720,1,0,0:0:0:0:
64,192,21820,1,0,0:0:0:0:
448,192,21820,1,8,0:0:0:0:
320,192,22020,1,0,0:0:0:0:
192,192,22120,1,0,0:0:0:0:
448,192,22220,1,8,0:0:0:0:
64,192,22220,1,0,0:0:0:0:
192,192,22320,1,0,0:0:0:0:
320,192,22420,1,0,0:0:0:0:
64,192,22520,1,0,0:0:0:0:
192,192,22620,1,0,0:0:0:0:
448,192,22620,1,8,0:0:0:0:
64,192,22720,1,0,0:0:0:0:
320,192,22820,1,0,0:0:0:0:
448,192,22920,1,0,0:0:0:0:
64,192,23020,1,0,0:0:0:0:
192,192,23020,1,8,0:0:0:0:
320,192,23120,1,0,0:0:0:0:
448,192,23220,1,0,0:0:0:0:
64,192,23320,1,0,0:0:0:0:
192,192,23420,1,2,0:0:0:0:
320,192,23420,1,8,0:0:0:0:
448,192,23520,1,0,0:0:0:0:
64,192,23620,1,0,0:0:0:0:
320,192,23720,1,0,0:0:0:0:
192,192,23820,1,0,0:0:0:0:
448,192,23820,1,8,0:0:0:0:
320,192,23920,1,0,0:0:0:0:
64,192,24020,1,0,0:0:0:0:
448,192,24120,1,0,0:0:0:0:
320,192,24220,1,8,0:0:0:0:
192,192,24220,1,0,0:0:0:0:
64,192,24320,1,0,0:0:0:0:
448,192,24420,1,0,0:0:0:0:
192,192,24520,1,0,0:0:0:0:
64,192,24620,1,0,0:0:0:0:
320,192,24620,1,8,0:0:0:0:
448,192,24720,1,0,0:0:0:0:
320,192,24820,1,0,0:0:0:0:
192,192,24920,1,0,0:0:0:0:
64,192,25020,1,2,0:0:0:0:
448,192,25020,1,8,0:0:0:0:
320,192,25220,1,0,0:0:0:0:
192,192,25320,1,0,0:0:0:0:
320,192,25420,1,0,0:0:0:0:
448,192,25420,1,8,0:0:0:0:
64,192,25520,1,0,0:0:0:0:
192,192,25620,1,0,0:0:0:0:
448,192,25720,1,0,0:0:0:0:
320,192,25820,1,8,0:0:0:0:
64,192,25820,1,0,0:0:0:0:
192,192,25920,1,0,0:0:0:0:
448,192,26020,1,0,0:0:0:0:
64,192,26120,1,0,0:0:0:0:
192,192,26220,1,0,0:0:0:0:
320,192,26220,1,8,0:0:0:0:
448,192,26320,1,0,0:0:0:0:
64,192,26420,1,0,0:0:0:0:
320,192,26520,1,0,0:0:0:0:
192,192,26620,1,0,0:0:0:0:
448,192,26620,1,8,0:0:0:0:
64,192,26720,1,0,0:0:0:0:
320,192,26820,1,0,0:0:0:0:
448,192,26920,1,0,0:0:0:0:
64,192,27020,1,0,0:0:0:0:
192,192,27020,1,8,0:0:0:0:
320,192,27120,1,0,0:0:0:0:
192,192,27220,1,0,0:0:0:0:
448,192,27320,1,0,0:0:0:0:
320,192,27420,1,8,0:0:0:0:
64,192,27420,1,0,0:0:0:0:
192,192,27520,1,0,0:0:0:0:
448,192,27620,1,0,0:0:0:0:
64,192,27720,1,0,0:0:0:0:
192,192,27820,5,0,0:0:0:0:
320,192,27820,1,8,0:0:0:0:
448,192,27920,1,0,0:0:0:0:
64,192,28020,1,0,0:0:0:0:
320,192,28120,1,0,0:0:0:0:
448,192,28220,1,8,0:0:0:0:
192,192,28220,1,0,0:0:0:0:
64,192,28420,1,0,0:0:0:0:
192,192,28520,1,0,0:0:0:0:
320,192,28620,1,0,0:0:0:0:
448,192,28620,1,8,0:0:0:0:
192,192,28720,1,0,0:0:0:0:
64,192,28820,1,0,0:0:0:0:
192,192,28886,1,0,0:0:0:0:
320,192,28953,1,0,0:0:0:0:
448,192,29020,1,8,0:0:0:0:
64,192,29086,1,0,0:0:0:0:
192,192,29153,1,0,0:0:0:0:
320,192,29220,1,0,0:0:0:0:
448,192,29320,1,0,0:0:0:0:
192,192,29420,1,0,0:0:0:0:
64,192,29520,1,0,0:0:0:0:
320,192,29620,1,0,0:0:0:0:
192,192,29720,1,0,0:0:0:0:
448,192,29820,1,8,0:0:0:0:
320,192,29820,1,2,0:0:0:0:
192,192,30020,1,0,0:0:0:0:
448,192,30120,1,0,0:0:0:0:
320,192,30220,1,8,0:0:0:0:
64,192,30220,1,0,0:0:0:0:
192,192,30420,1,0,0:0:0:0:
64,192,30520,1,0,0:0:0:0:
320,192,30620,1,0,0:0:0:0:
448,192,30620,1,8,0:0:0:0:
192,192,30720,1,0,0:0:0:0:
448,192,30820,1,0,0:0:0:0:
320,192,30920,1,0,0:0:0:0:
448,192,31020,1,8,0:0:0:0:
64,192,31020,1,0,0:0:0:0:
192,192,31120,1,0,0:0:0:0:
320,192,31220,1,0,0:0:0:0:
64,192,31320,1,0,0:0:0:0:
448,192,31420,1,8,0:0:0:0:
192,192,31420,1,2,0:0:0:0:
320,192,31620,1,0,0:0:0:0:
64,192,31720,1,0,0:0:0:0:
192,192,31820,1,0,0:0:0:0:
448,192,31820,1,8,0:0:0:0:
320,192,31920,1,0,0:0:0:0:
64,192,32020,1,0,0:0:0:0:
448,192,32120,1,0,0:0:0:0:
320,192,32220,1,8,0:0:0:0:
192,192,32220,1,0,0:0:0:0:
448,192,32320,1,0,0:0:0:0:
64,192,32420,1,0,0:0:0:0:
320,192,32520,1,0,0:0:0:0:
448,192,32620,1,8,0:0:0:0:
192,192,32620,1,0,0:0:0:0:
64,192,32720,1,0,0:0:0:0:
320,192,32820,1,0,0:0:0:0:
448,192,32920,1,0,0:0:0:0:
64,192,33020,1,0,0:0:0:0:
192,192,33020,1,8,0:0:0:0:
320,192,33220,1,0,0:0:0:0:
192,192,33320,1,0,0:0:0:0:
64,192,33420,1,0,0:0:0:0:
448,192,33420,1,8,0:0:0:0:
320,192,33520,1,0,0:0:0:0:
64,192,33620,1,0,0:0:0:0:
192,192,33720,1,0,0:0:0:0:
320,192,33820,1,0,0:0:0:0:
448,192,33820,1,8,0:0:0:0:
64,192,34020,1,0,0:0:0:0:
448,192,34120,1,0,0:0:0:0:
320,192,34220,1,8,0:0:0:0:
192,192,34220,1,0,0:0:0:0:
64,192,34320,1,0,0:0:0:0:
320,192,34420,1,0,0:0:0:0:
192,192,34520,1,0,0:0:0:0:
320,192,34620,1,0,0:0:0:0:
448,192,34620,1,8,0:0:0:0:
64,192,34820,1,0,0:0:0:0:
320,192,34920,1,0,0:0:0:0:
192,192,35020,1,0,0:0:0:0:
448,192,35020,1,8,0:0:0:0:
320,192,35120,1,0,0:0:0:0:
64,192,35220,1,0,0:0:0:0:
448,192,35320,1,0,0:0:0:0:
320,192,35420,1,8,0:0:0:0:
192,192,35420,1,0,0:0:0:0:
64,192,35520,1,0,0:0:0:0:
448,192,35620,1,0,0:0:0:0:
192,192,35720,1,0,0:0:0:0:
320,192,35820,1,8,0:0:0:0:
64,192,35820,1,0,0:0:0:0:
448,192,35920,1,0,0:0:0:0:
192,192,36020,1,0,0:0:0:0:
448,192,36120,1,0,0:0:0:0:
320,192,36220,1,8,0:0:0:0:
64,192,36220,1,2,0:0:0:0:
448,192,36320,1,0,0:0:0:0:
192,192,36420,1,0,0:0:0:0:
64,192,36520,1,0,0:0:0:0:
192,192,36620,1,0,0:0:0:0:
448,192,36620,1,8,0:0:0:0:
320,192,36720,1,0,0:0:0:0:
64,192,36820,1,0,0:0:0:0:
192,192,36920,1,0,0:0:0:0:
448,192,37020,1,8,0:0:0:0:
320,192,37020,1,0,0:0:0:0:
64,192,37120,1,0,0:0:0:0:
320,192,37220,1,0,0:0:0:0:
192,192,37320,1,0,0:0:0:0:
64,192,37420,1,0,0:0:0:0:
448,192,37420,1,8,0:0:0:0:
320,192,37520,1,0,0:0:0:0:
64,192,37620,1,0,0:0:0:0:
448,192,37720,1,0,0:0:0:0:
320,192,37820,1,8,0:0:0:0:
192,192,37820,1,2,0:0:0:0:
448,192,38020,1,0,0:0:0:0:
64,192,38120,1,0,0:0:0:0:
192,192,38220,1,0,0:0:0:0:
320,192,38220,1,8,0:0:0:0:
448,192,38320,1,0,0:0:0:0:
64,192,38420,1,0,0:0:0:0:
192,192,38520,1,0,0:0:0:0:
320,192,38620,1,0,0:0:0:0:
448,192,38620,1,8,0:0:0:0:
64,192,38720,1,0,0:0:0:0:
320,192,38820,1,0,0:0:0:0:
192,192,38920,1,0,0:0:0:0:
448,192,39020,1,8,0:0:0:0:
64,192,39020,1,0,0:0:0:0:
320,192,39120,1,0,0:0:0:0:
192,192,39220,1,0,0:0:0:0:
448,192,39320,1,0,0:0:0:0:
320,192,39420,1,8,0:0:0:0:
64,192,39420,1,0,0:0:0:0:
192,192,39520,1,0,0:0:0:0:
64,192,39620,1,0,0:0:0:0:
192,192,39720,1,0,0:0:0:0:
320,192,39820,1,0,0:0:0:0:
448,192,39820,1,8,0:0:0:0:
64,192,39920,1,0,0:0:0:0:
192,192,40020,5,0,0:0:0:0:
320,192,40120,1,0,0:0:0:0:
448,192,40220,1,8,0:0:0:0:
64,192,40220,1,0,0:0:0:0:
320,192,40320,1,0,0:0:0:0:
192,192,40420,1,0,0:0:0:0:
320,192,40520,1,0,0:0:0:0:
448,192,40620,1,8,0:0:0:0:
192,192,40620,1,0,0:0:0:0:
64,192,40720,1,0,0:0:0:0:
192,192,40820,1,0,0:0:0:0:
64,192,40920,5,0,0:0:0:0:
320,192,41020,1,0,0:0:0:0:
448,192,41120,1,0,0:0:0:0:
192,192,41220,1,0,0:0:0:0:
64,192,41320,1,0,0:0:0:0:
320,192,41420,1,0,0:0:0:0:
192,192,41520,1,0,0:0:0:0:
448,192,41620,1,0,0:0:0:0:
320,192,41686,1,0,0:0:0:0:
192,192,41753,1,0,0:0:0:0:
64,192,41820,1,0,0:0:0:0:
448,192,41886,1,0,0:0:0:0:
320,192,41953,1,0,0:0:0:0:
192,192,42020,1,0,0:0:0:0:
64,192,42120,1,0,0:0:0:0:
192,192,42220,1,0,0:0:0:0:
320,192,42320,1,0,0:0:0:0:
192,192,42420,1,0,0:0:0:0:
448,192,42520,1,0,0:0:0:0:
320,192,42620,1,0,0:0:0:0:
64,192,42620,1,2,0:0:0:0:
192,192,42820,1,0,0:0:0:0:
320,192,42920,1,0,0:0:0:0:
448,192,43020,1,0,0:0:0:0:
320,192,43120,1,0,0:0:0:0:
64,192,43220,1,0,0:0:0:0:
192,192,43320,1,0,0:0:0:0:
320,192,43420,1,0,0:0:0:0:
192,192,43520,1,0,0:0:0:0:
448,192,43620,1,0,0:0:0:0:
64,192,43720,1,0,0:0:0:0:
192,192,43820,1,0,0:0:0:0:
320,192,43920,1,0,0:0:0:0:
448,192,44020,1,0,0:0:0:0:
64,192,44120,1,0,0:0:0:0:
320,192,44220,1,2,0:0:0:0:
192,192,44320,1,0,0:0:0:0:
448,192,44420,1,0,0:0:0:0:
192,192,44520,1,0,0:0:0:0:
64,192,44620,1,0,0:0:0:0:
320,192,44720,1,0,0:0:0:0:
448,192,44820,1,0,0:0:0:0:
192,192,44920,1,0,0:0:0:0:
320,192,45020,1,0,0:0:0:0:
64,192,45120,1,0,0:0:0:0:
448,192,45220,1,0,0:0:0:0:
192,192,45320,1,0,0:0:0:0:
320,192,45420,1,0,0:0:0:0:
64,192,45520,1,0,0:0:0:0:
320,192,45620,1,0,0:0:0:0:
448,192,45720,1,0,0:0:0:0:
192,192,45820,1,2,0:0:0:0:
64,192,45920,1,0,0:0:0:0:
320,192,46020,1,0,0:0:0:0:
192,192,46120,1,0,0:0:0:0:
448,192,46220,1,0,0:0:0:0:
64,192,46320,1,0,0:0:0:0:
320,192,46420,1,0,0:0:0:0:
448,192,46520,1,0,0:0:0:0:
192,192,46620,1,0,0:0:0:0:
448,192,46720,1,0,0:0:0:0:
320,192,46820,1,0,0:0:0:0:
64,192,46920,1,0,0:0:0:0:
448,192,47020,1,0,0:0:0:0:
192,192,47120,1,0,0:0:0:0:
320,192,47220,1,0,0:0:0:0:
448,192,47320,1,0,0:0:0:0:
64,192,47420,1,0,0:0:0:0:
320,192,47520,1,0,0:0:0:0:
192,192,47620,1,0,0:0:0:0:
320,192,47720,1,0,0:0:0:0:
448,192,47820,1,0,0:0:0:0:
64,192,47920,1,0,0:0:0:0:
192,192,48020,1,0,0:0:0:0:
448,192,48120,1,0,0:0:0:0:
320,192,48220,1,0,0:0:0:0:
64,192,48320,1,0,0:0:0:0:
448,192,48420,1,0,0:0:0:0:
192,192,48520,1,0,0:0:0:0:
320,192,48620,1,0,0:0:0:0:
448,192,48720,1,0,0:0:0:0:
320,192,48820,1,0,0:0:0:0:
192,192,48920,1,0,0:0:0:0:
320,192,49020,5,8,0:0:0:0:
64,192,49020,1,2,0:0:0:0:
448,192,49220,1,0,0:0:0:0:
320,192,49320,1,0,0:0:0:0:
192,192,49420,1,8,0:0:0:0:
64,192,49420,1,0,0:0:0:0:
320,192,49520,1,0,0:0:0:0:
64,192,49620,1,0,0:0:0:0:
448,192,49720,1,0,0:0:0:0:
320,192,49820,1,8,0:0:0:0:
192,192,49820,1,0,0:0:0:0:
64,192,50020,1,0,0:0:0:0:
320,192,50120,1,0,0:0:0:0:
192,192,50220,1,0,0:0:0:0:
448,192,50220,1,8,0:0:0:0:
64,192,50320,1,0,0:0:0:0:
320,192,50420,1,0,0:0:0:0:
192,192,50520,1,0,0:0:0:0:
320,192,50620,1,2,0:0:0:0:
448,192,50620,1,8,0:0:0:0:
64,192,50820,1,0,0:0:0:0:
448,192,50920,1,0,0:0:0:0:
320,192,51020,1,8,0:0:0:0:
192,192,51020,1,0,0:0:0:0:
64,192,51120,1,0,0:0:0:0:
448,192,51220,1,0,0:0:0:0:
192,192,51320,1,0,0:0:0:0:
64,192,51420,1,0,0:0:0:0:
320,192,51420,1,8,0:0:0:0:
448,192,51520,1,0,0:0:0:0:
192,192,51620,1,0,0:0:0:0:
320,192,51720,1,0,0:0:0:0:
448,192,51820,1,8,0:0:0:0:
64,192,51820,1,0,0:0:0:0:
192,192,51920,1,0,0:0:0:0:
320,192,52020,1,0,0:0:0:0:
64,192,52120,1,0,0:0:0:0:
448,192,52220,1,8,0:0:0:0:
320,192,52220,1,0,0:0:0:0:
192,192,52320,1,0,0:0:0:0:
448,192,52420,1,0,0:0:0:0:
320,192,52520,1,0,0:0:0:0:
192,192,52620,1,8,0:0:0:0:
64,192,52620,1,0,0:0:0:0:
320,192,52720,1,0,0:0:0:0:
448,192,52820,1,0,0:0:0:0:
64,192,52920,1,0,0:0:0:0:
320,192,53020,1,8,0:0:0:0:
192,192,53020,1,0,0:0:0:0:
448,192,53120,1,0,0:0:0:0:
64,192,53220,5,0,0:0:0:0:
192,192,53320,1,0,0:0:0:0:
320,192,53420,1,0,0:0:0:0:
448,192,53420,1,8,0:0:0:0:
64,192,53520,1,0,0:0:0:0:
448,192,53620,1,0,0:0:0:0:
192,192,53720,1,0,0:0:0:0:
64,192,53820,1,0,0:0:0:0:
320,192,53820,1,8,0:0:0:0:
448,192,53920,1,0,0:0:0:0:
320,192,54020,1,0,0:0:0:0:
64,192,54120,1,0,0:0:0:0:
192,192,54220,1,0,0:0:0:0:
320,192,54220,1,8,0:0:0:0:
448,192,54320,1,0,0:0:0:0:
64,192,54420,1,0,0:0:0:0:
192,192,54486,1,0,0:0:0:0:
320,192,54553,1,0,0:0:0:0:
448,192,54620,1,8,0:0:0:0:
64,192,54686,1,0,0:0:0:0:
192,192,54753,1,0,0:0:0:0:
320,192,54820,1,0,0:0:0:0:
448,192,54920,1,0,0:0:0:0:
64,192,55020,1,0,0:0:0:0:
320,192,55120,1,0,0:0:0:0:
192,192,55220,1,0,0:0:0:0:
448,192,55320,1,0,0:0:0:0:
64,192,55420,1,2,0:0:0:0:
192,192,55420,1,8,0:0:0:0:
320,192,55420,1,0,0:0:0:0:
